Cd caetano veloso 1968


cd caetano veloso 1968

Size: 49 MB, torrent Contents, caetano Veloso 1968 - Caetano Veloso 02 37,862 KB 12 36,676 KB 10 Soy Loco Por Ti 35,361 KB 01 Tropicá35,335 KB 04 Alegria, 34,057 KB 08 Paisagem 33,805 KB 03 No Dia Em Que Eu Vim-me 33,571.
6 7 It was very cs 1.6 default player skins popular upon its release in Brazil, and the Brazilian press used the song title "Tropicália" to christen the larger artistic movement it represented "Tropicalismo to the disdain of Caetano himself.
We have selected English as your language preference.
Test CRC E1CE1FB9, copy CRC E1CE1FB9, copy.It was one of the first.No Dia Em Que Eu Vim-me Embora.Test CRC 21C8BC3A, copy CRC 21C8BC3A, copy.2 The song was voted by the Brazilian edition of Rolling Stone as the 21st greatest Brazilian song.Used output format : C:Arquivos de programasExact Audio Copyflac.Cat artist, title format label, cat country.
In fact, Caetano had already completed the song's composition when film producer Luiz Carlos Barreto suggested "Tropicália" as its title, seeing similarities between its content and that of the art exhibit.
2 The album was inducted into the Latin Grammy Award Hall of Fame in 2001.
Processing file: 01 - Tropicalia.Read offset correction : 667, overread into Lead-In and Lead-Out :.Wav Detected average hi-boundary frequency:.018884e004 Hz x5 steam cleaner reviews 2013 Detected average lo-boundary frequency:.298551e004 Hz Detected average hi-cut frequency:.074312e004 Hz Detected average lo-cut frequency:.440948e003 Hz Maximum probablis boundary frequency:.189100e004 Hz Coefficient of nonlinearity of a phase:.889389e-001 First order smothness:.112903e-001 Second order smothness.Caetano Veloso - Caetano Veloso (Tropicalia 1968).Wav Pre-gap length 0:00:01.56 hack and cheat dragon city Peak level 100.0 Track quality 100.0 Test CRC 3BA866AE Copy CRC 3BA866AE Copy OK Track 11 Filename E:Caetano Veloso - Caetano Veloso (1968)11 - Ave Maria.




Sitemap